#TITLE:Xepher;
#SUBTITLE:~Magna Trick re-edit~;
#ARTIST:Tatsh;
#TITLETRANSLIT:;
#SUBTITLETRANSLIT:;
#ARTISTTRANSLIT:;
#CREDIT:;
#BANNER:Xepher-bn.png;
#BACKGROUND:Xepher-bg.png;
#LYRICSPATH:;
#CDTITLE:Magna Trick title!.png;
#MUSIC:Xepher.mp3;
#OFFSET:0.142;
#SAMPLESTART:92.840;
#SAMPLELENGTH:13.320;
#SELECTABLE:YES;
#BPMS:0.000=170.000,145.000=85.000,147.000=170.000,295.000=85.000,297.000=170.000;
#STOPS:72.000=2.500
,316.500=1.400
;
#BGCHANGES:;
// cache tags:
#FIRSTBEAT:2.000;
#LASTBEAT:324.000;
#SONGFILENAME:Songs/Chilean Keyboard Megapack 3/(Magna Trick) Xepher/Xepher.sm;
#HASMUSIC:1;
#HASBANNER:1;
#MUSICLENGTH:121.808;
// end cache tags

//---------------dance-single - ----------------
#NOTES:
     dance-single:
     :
     Challenge:
     12:
     1.000,1.000,1.000,0.591,1.000,1056.000,221.000,72.000,0.000,5.000:
0000
0000
1001
0000
,
0110
1000
0100
1000
0001
0100
1001
0010
0100
0010
0001
1000
,
0011
0100
0001
1000
0100
1000
0101
0010
0100
0010
0001
1000
,
0011
0100
0001
0010
0100
1000
0011
0100
0010
1000
0001
0100
,
0011
1000
0001
0010
0001
1000
0101
0010
0100
1000
0001
0100
,
0011
1000
0001
0010
0100
1000
0110
0001
1000
0010
0100
0001
,
1100
0010
0100
1000
0010
0100
1001
0010
0001
1000
0100
0010
,
1001
0100
0010
0001
0010
0100
1000
0100
0010
0001
1000
0100
0010
0001
0010
0100
1000
0001
0010
0100
1000
0100
0010
0001
,
1010
0001
0100
0001
1000
0100
1000
0001
0010
0100
1000
0010
,
0102
1000
0010
0100
0010
1000
0103
0010
0001
0010
1001
1001
,
0110
0001
0010
0100
1000
0010
0100
0001
1000
0110
0001
0100
,
1010
0100
0010
0001
0010
1000
0110
0001
1000
0010
0100
0001
,
1010
0100
0001
1000
0100
0010
0101
1000
0001
0100
0010
1000
,
0110
0001
1000
0100
0010
0001
0110
1000
0100
1000
0001
0100
,
2001
0100
0010
0001
0010
0100
3010
0001
0100
0010
1000
0100
,
1001
0010
0100
1000
0100
0010
0001
0010
0100
1000
0001
0010
0100
1000
0100
0010
0001
1000
0100
0010
0001
0010
0100
1000
,
0101
1000
0010
0100
0001
1000
0110
1000
0001
0010
0100
0010
,
1001
0100
0010
0001
0010
0100
1001
0010
0100
0001
1000
0100
,
2002
3003
0000
0000
0001
1000
0010
0001
1000
0100
0001
0010
1000
0001
0100
1000
,
0110
0000
0000
0000
1000
0010
0001
1000
0100
0001
0010
0100
0001
0010
1000
0100
,
0011
0000
0011
0000
0100
1000
0010
0100
1000
0001
0010
0100
0001
1000
0010
0001
,
1100
1100
1100
0000
0010
0001
1000
0100
0010
0001
0010
0100
1000
0001
0010
0100
,
1000
0100
0010
0001
0010
1000
0001
0010
0100
0001
1000
0010
0001
0100
0010
0001
,
0110
0000
0000
0000
1000
0010
0001
1000
0100
0010
1000
0001
0010
0100
0001
0010
,
1100
0000
1100
0000
0010
0001
1000
0010
0100
1000
0001
0100
0010
0001
1000
0010
,
1001
0000
0100
0000
1001
0000
0010
0000
1001
0000
0110
0000
1001
1001
1001
1001
,
1001
1001
1001
1001
1001
0000
0010
0000
1001
0000
0100
0000
0011
0000
0110
1000
,
0000
0000
1000
0000
0110
0000
0000
0000
0101
0000
0000
0000
0010
0000
0000
0000
1001
0000
0000
0000
0100
0000
0000
0000
1000
0001
0000
0000
0010
0100
0000
0000
,
1000
0001
0000
0000
0010
0100
0000
0000
1001
0000
0000
0000
0010
0000
0000
0000
1001
0000
0000
0000
0100
0000
0000
0000
1001
0000
0000
0000
0011
0000
0100
0000
,
0000
0100
0011
0000
1001
0000
0100
0000
1001
0000
0010
0000
0101
1010
0000
0110
,
0000
1010
0101
0000
1001
0000
0010
0000
1001
0000
0100
0000
1001
0000
0011
0100
,
0000
0100
0011
0000
2200
0000
3310
0000
2002
0000
3013
0000
0100
0001
0010
0100
,
1000
0001
0100
0010
1001
0000
1001
0000
1001
0000
0011
1100
0000
1100
0011
0000
,
0110
1100
1001
0110
1001
1100
0110
0010
,
0011
0100
1001
0010
1001
0100
1001
0010
,
1001
0000
0100
0000
1001
0110
1001
0110
1001
0110
1001
0110
1001
0110
1001
0110
,
1001
0110
1001
0110
2001
0000
0000
0000
3020
0000
0230
0000
0302
0010
1003
0100
,
0010
1000
0010
0001
0200
0010
1300
0001
1000
0010
0100
0001
2000
0010
3001
0100
,
1000
0001
0010
1000
0200
0001
1300
0010
0200
0001
1300
0100
0020
0001
0130
1000
,
0210
0001
1300
0010
0002
0100
0013
0100
2001
0010
3100
0001
0020
1000
0031
0100
,
0001
1000
0010
0001
1000
0100
0010
1000
0002
0100
0013
1000
0002
0010
1003
0001
,
0010
1000
0100
0001
2000
0100
3001
0010
0200
1000
0301
0100
0020
1000
0031
0010
,
1000
0001
0100
1000
0002
0100
0013
1000
0001
0010
0100
0010
0002
1000
0013
0001
,
0010
0100
0001
0100
0020
1000
0031
0100
0010
0001
0010
1000
0200
0010
0001
1300
,
0101
0010
0001
0010
0100
1000
0001
0010
0101
1000
0100
0010
0001
1000
0100
0010
,
1002
0100
0010
0100
2003
0010
0001
0100
3020
0001
1000
0001
0230
0010
0001
1000
,
0312
1000
0010
0100
2003
0010
0100
0001
3210
0001
1300
0010
1001
0001
0100
1000
,
0001
0010
1000
0100
0001
1000
0010
0001
0110
0000
0000
0000
0001
0100
1000
0001
,
0010
1000
0100
0010
1000
0100
0001
0010
1100
0000
1100
0000
0010
0001
0100
0010
,
0001
1000
0100
0010
1000
0001
0100
1000
0011
0011
0011
0000
0100
1000
0001
0010
,
0100
1000
0100
0010
0001
1000
0100
0010
0001
0010
0100
1000
0100
0001
1000
0100
,
0010
1000
0001
0100
1000
0010
0100
1000
0110
0000
0000
0000
0001
0100
1000
0001
,
0010
0100
0001
1000
0100
0010
1000
0100
0011
0000
0011
0000
0100
1000
0001
0100
,
0010
0001
1000
0010
0100
1000
0001
0100
1001
0000
0010
0000
1001
0000
0100
0000
,
1001
0000
0110
0000
1001
1001
1001
1001
1001
1001
1001
1001
1001
0000
1000
0000
,
1100
0000
0100
0000
0101
0000
0001
0000
0011
0000
0010
0000
1020
0030
2000
3000
,
1200
0300
0200
0300
0102
0003
0002
0003
0021
0030
0020
0030
2010
3000
1000
0000
,
1100
0000
0100
0000
0101
0000
0001
0000
0011
0000
0010
0000
1010
0100
0001
0000
,
1100
0010
0001
0000
1010
0100
0001
0000
1100
0010
0001
0000
1001
0000
1010
0000
,
0110
0101
1001
1100
0110
0011
1001
0110
,
1001
0100
0010
0001
1000
0100
0010
0001
1000
0010
0100
0001
1000
0010
0100
0001
,
1000
0100
0010
0001
1000
0010
0100
0001
1000
0100
0010
0001
1000
0010
0100
0001
,
1000
0100
1000
0100
0010
0001
0010
0001
1000
0010
0100
0010
0100
0001
1000
0100
,
1000
0001
1000
0100
1000
0001
1000
0100
1000
0001
1000
0100
2001
0010
3100
0001
,
1000
0100
0010
0001
2000
0010
3100
0001
2000
0001
3010
0100
2000
0100
3001
0010
,
0100
0001
0100
1000
0020
0100
0031
1000
0001
0100
0010
1000
0002
0100
1003
0010
,
0001
1000
0100
0001
0020
1000
0031
0100
0020
1000
0031
0010
0200
1000
0310
0001
,
0120
1000
0031
0100
2000
0010
3100
0010
1002
0100
0013
1000
0200
0001
1300
0010
,
1000
0001
0100
1000
0001
0010
0100
0001
2000
0010
3100
0001
2000
0100
3001
1000
,
0100
0001
0010
1000
0002
0010
1003
0100
0020
0001
1030
0010
0200
0001
1300
0100
,
0001
1000
0010
0001
2000
0010
3100
0001
1000
0100
0010
0100
2000
0001
3100
1000
,
0100
0010
1000
0010
0200
0001
1300
0010
0100
1000
0100
0001
0020
0100
1000
0031
,
1010
0100
1000
0100
0010
0001
1000
0100
1010
0001
0010
0100
1000
0001
0010
0100
,
1001
0100
0010
0001
0100
0010
1000
0001
1010
0001
1000
0010
0102
0000
0000
0000
,
2003
0000
0000
0000
3101
1000
0010
0100
1001
0000
0110
1001
0000
0110
1001
0000
,
0110
0000
1001
0000
1010
0100
0010
0001
1100
0000
0101
1010
0000
0101
1010
0000
,
0101
0000
1010
0000
0101
0010
0100
0010
1001
0000
1100
0011
0000
1100
0011
0000
,
1001
0000
0110
0000
1001
0010
0100
0001
1010
0000
0011
1100
0000
0011
1100
0000
,
0011
0000
1100
0000
1001
0010
0100
1000
0011
0000
0110
1001
0000
0110
1001
0000
,
1100
0000
0011
0000
1000
0100
0001
0010
1000
0001
0100
1000
0010
0100
1000
0010
,
0001
0100
1000
0010
2002
0000
0000
0000
0000
0000
0000
0000
0000
0000
0000
0000
,
3003
0000
0000
0000
;
